威酷高清論壇

 找回密碼
 立即注冊
查看: 79|回復: 0
打印 上一主題 下一主題
收起左側

[劇情] 人間,空間,時間和人 H.S.T.a.H.2018.KOREAN.1080p.BluRay.x264.DD5.1-PbK 12.41 GiB

[復制鏈接]
  • TA的每日心情
    奮斗
    6 天前
  • 簽到天數: 8 天

    [LV.3]偶爾看看II

    跳轉到指定樓層
    樓主
    卡西迪奧 發表于 2019-10-23 17:46:01 | 只看該作者 回帖獎勵 |倒序瀏覽 |閱讀模式

    3 d- s0 p! b0 o+ q0 K/ p( k7 }. z
    ) E1 r6 ~7 n9 I" ~2 {7 r7 [) [
    ◎譯  名 人間,空間,時間和人/人類的時間/人間時人(港)/末日飛船(臺)
    ; I* I: D, n6 o3 U! [6 ^# w& M; L◎片  名 Human, Space, Time and Human/인간, 공간, 시간 그리고 인간
    ; [% q! w: V% m  b* l◎年  代 2019
    $ p* X2 M* ?' {. M: E3 I◎國  家 韓國% e2 m, X- T; F; K. l% S
    ◎類  別 劇情
    & i7 E# g2 x0 \% ~7 G◎語  言 韓語
    - h* q& S  A2 X/ K9 \, r/ s& o3 T6 Y6 q◎IMDb評分  5.4/10 from 336 users# u  x' I1 w9 b: ?8 {1 W* }
    ◎IMDB鏈接 https://www.imdb.com/title/tt6927316/
    ' N/ r$ S1 N, i) Z+ }) K  ]◎片  長 2 h 1 min# X& D8 _* @/ R  S8 T# |
    ◎導  演 金基德 Ki-duk Kim. i. k7 g2 x3 v* T
    ◎主  演 安圣基 Sung-kee Ahn! n% i; L7 Q& i1 I, |
           張根碩 Keun-Suk Jang  u. Z0 I+ p2 y% c
           李成宰 Sung-jae Lee
    0 O9 T4 E0 ?+ J* q; [6 f       藤井美菜 Mina Fujii2 S! N' A3 a5 R$ r* A7 z* p/ N
           小田切讓 Jô Odagiri) y( w" }1 w, _! y: ^
    0 p# H( r" E  I7 J* m9 a+ ~
    ◎簡  介& H9 x1 @4 g# j
    3 z4 q! ~6 c1 o" I' k

    3 Q8 W0 w! n5 d: ~1 |+ B  《人,空間,時間和人》講述了一艘老軍艦上不同年齡和職業的人之間發生的故事, 強奸,謀殺,兵變, 金基德沒有給予片中的人物絲毫的放松時間。 電影中的所有人物既沒有名字也沒有背景,唯一重要的只有讓人喘不過氣來的“當下”。在一個戲劇性的人際關系的漩渦之中,一場關于食物和生存的斗爭完全轉向了荒誕。
    9 O# f4 L: M( L# w7 Z( ?
    3 Z; Y% f. Z+ b4 S$ {8 `+ m( h+ S
    1. Video& d5 B1 m- D; H! n! @. f
    2. ID : 1; z# M5 K# ]+ L; L# F' H
    3. Format : AVC) I7 R$ ]5 E5 F' U, S6 s
    4. Format/Info : Advanced Video Codec
      # f) W* r4 Z0 i0 _3 X# X4 j
    5. Format profile : [email][email protected][/email]
        j  }% O7 g& v6 S- ?
    6. Format settings : CABAC / 4 Ref Frames
      8 L+ V  q, a& j$ L
    7. Format settings, CABAC : Yes7 k6 C0 E1 ^: }* e
    8. Format settings, Reference frames : 4 frames( B6 m5 K( n9 N
    9. Codec ID : V_MPEG4/ISO/AVC
      * O6 p" l. F9 s) g6 I* J  C
    10. Duration : 2 h 1 min
      " e6 T( q; i! J4 L- i6 `/ x
    11. Bit rate : 14.0 Mb/s  d; c0 X( x% q, k" B" z. A
    12. Width : 1 920 pixels
      / i8 T$ v' Z  r( ]0 [; }
    13. Height : 1 042 pixels
      1 @# Q6 M2 m; e4 k
    14. Display aspect ratio : 1.85:1, `7 v2 D2 ^; N" ]
    15. Frame rate mode : Constant% O# P! F: _7 M
    16. Frame rate : 24.000 FPS% b7 n! h, I) M: [0 U
    17. Color space : YUV. U. j1 ~  _' u! S
    18. Chroma subsampling : 4:2:0$ ^0 w3 Z" E0 V/ Z$ ?
    19. Bit depth : 8 bits
      6 e; g2 Y. t) M* ?
    20. Scan type : Progressive
      5 \, P! W) b0 a* v0 g
    21. Bits/(Pixel*Frame) : 0.292# j+ @/ Q& F$ t8 W& [; u, R
    22. Stream size : 11.6 GiB (94%)  Y- C/ u5 [  U+ |& g2 K4 R8 I/ k
    23. Writing library : x264 core 155 r2901 7d0ff22
      + I7 U- b* ^8 q( ~7 W& L
    24. Encoding settings : cabac=1 / ref=4 / deblock=1:-3:-3 / analyse=0x3:0x133 / me=umh / subme=11 / psy=1 / psy_rd=1.00:0.00 / mixed_ref=1 / me_range=48 / chroma_me=1 / trellis=2 / 8x8dct=1 / cqm=0 / deadzone=21,11 / fast_pskip=1 / chroma_qp_offset=-2 / threads=18 / lookahead_threads=3 / sliced_threads=0 / nr=0 / decimate=1 / interlaced=0 / bluray_compat=0 / constrained_intra=0 / bframes=8 / b_pyramid=2 / b_adapt=2 / b_bias=0 / direct=3 / weightb=1 / open_gop=0 / weightp=2 / keyint=240 / keyint_min=24 / scenecut=40 / intra_refresh=0 / rc=2pass / mbtree=0 / bitrate=14000 / ratetol=1.0 / qcomp=0.60 / qpmin=0 / qpmax=69 / qpstep=4 / cplxblur=20.0 / qblur=0.5 / ip_ratio=1.30 / pb_ratio=1.20 / aq=3:0.800 I' H5 j8 _$ A% L. \
    25. Language : Korean2 C) k) R1 c" @$ A& K
    26. Default : Yes7 ]6 S! V' w4 u8 G3 T
    27. Forced : No! r- F! M9 P" R% n
    28. Color range : Limited* p* K( l7 P: T9 b0 M
    29. Color primaries : BT.7090 Y( Y2 Q9 [* M/ ~' d" G( v8 Z
    30. Transfer characteristics : BT.709
      3 L# `- v0 i: w6 u" V
    31. Matrix coefficients : BT.709
      + T/ t7 {5 @4 L, ~
    32. Statistics Tags Issue : mkvmerge v38.0.0 (\'The Silent Type\') 64-bit 2019-10-22 21:30:22 / mkvmerge v38.0.0 (\'The Silent Type\') 64-bit 2019-10-22 21:30:22 / UTC 2019-10-21T04:08:58Z4 L0 P& G9 r  G7 O9 F5 A
    33. FromStats_BitRate : 139966003 q4 J4 @' @. |& R! p) V! V
    34. FromStats_Duration : 02:01:21.000000000- P) D( @, R$ @& v( S
    35. FromStats_FrameCount : 174744
      ( L  O! p, c; K' m
    36. FromStats_StreamSize : 12738656364) d5 o0 Z9 _: j
    37. * ~$ v# R7 M& B+ m5 E, ?7 q- S
    38. Audio
      2 d1 A% _0 O  B) Y" ?& X  n
    39. ID : 2$ ]) R: a$ Z  Z6 b# Y4 b4 N; l
    40. Format : AC-3* j& z/ I* e" S! v* E
    41. Format/Info : Audio Coding 3- K( y$ W. P, L- h& k
    42. Commercial name : Dolby Digital
      ) v. X! G' M# P4 }" B/ M
    43. Codec ID : A_AC3; _4 T; H3 ^5 H+ k3 g5 G8 c3 M
    44. Duration : 2 h 1 min
      1 A: |. w: a/ |( N: F
    45. Bit rate mode : Constant6 x! n% j0 X. l# G
    46. Bit rate : 640 kb/s1 l) T) V* D6 ?5 k3 Y
    47. Channel(s) : 6 channels
      ( @4 m) t9 Q0 w4 [
    48. Channel layout : L R C LFE Ls Rs6 a0 Y3 V8 d7 ]
    49. Sampling rate : 48.0 kHz0 n0 s( o$ J' }; D
    50. Frame rate : 31.250 FPS (1536 SPF)1 I8 y; V& ]% [3 D' R& {$ I
    51. Bit depth : 16 bits
      1 ~) D$ z, ]$ l2 q
    52. Compression mode : Lossy
        R4 F# s/ U2 V8 u7 ?
    53. Stream size : 556 MiB (4%)2 d$ z4 X+ F% l; ^( R& w2 T1 H
    54. Language : Korean
      6 x8 n' T# }% w4 T
    55. Service kind : Complete Main/ ~7 y# W/ ?/ N0 D+ w. W% T; k
    56. Default : Yes
      & k4 D& L3 Z5 w: Y2 {* a
    57. Forced : No
      ! i1 z5 ?# T+ }& P% }5 q; T* E* y5 P; H
    58. Statistics Tags Issue : mkvmerge v38.0.0 (\'The Silent Type\') 64-bit 2019-10-22 21:30:22 / mkvmerge v38.0.0 (\'The Silent Type\') 64-bit 2019-10-22 21:30:22 / UTC 2019-10-21T04:08:58Z5 x- ]2 ]% ?1 b
    59. FromStats_BitRate : 6400006 u; a3 |8 g& ~& C* d2 m1 z
    60. FromStats_Duration : 02:01:21.152000000- J2 p7 M) j9 o" W; s
    61. FromStats_FrameCount : 2275362 ]; \. l/ \# F$ T" U0 ]
    62. FromStats_StreamSize : 582492160. b" L- {0 h6 S8 P
    63. & N" l* ~0 W0 x6 \
    64. Text2 a/ f7 W# v/ }' d+ [; `2 `
    65. ID : 3! k# V1 m4 Y0 D0 J& K! C4 o
    66. Format : UTF-8/ _' X1 J9 s: q# U0 ?6 v+ [
    67. Codec ID : S_TEXT/UTF80 Y! _5 @6 r3 C4 _+ d  Q. u
    68. Codec ID/Info : UTF-8 Plain Text
      3 G! {) p  A! c1 d) n
    69. Language : English
      3 M) k3 ]) {2 L; O+ ], O. H0 y
    70. Default : Yes
      ! M# [0 Q6 g; N5 X
    71. Forced : No
      9 h+ u( o4 c5 M- h
    72. Statistics Tags Issue : mkvmerge v38.0.0 (\'The Silent Type\') 64-bit 2019-10-22 21:30:22 / mkvmerge v38.0.0 (\'The Silent Type\') 64-bit 2019-10-22 21:30:22 / UTC 2019-10-21T04:08:58Z: v& q4 a* e, c
    73. FromStats_BitRate : 29
      ; \- T$ i2 v3 n; ^' m$ g2 I; n) S
    74. FromStats_Duration : 01:55:40.659000000; g) w6 @/ v, H3 t  g/ j
    75. FromStats_FrameCount : 1107
      $ J/ r# J( z/ F
    76. FromStats_StreamSize : 25750
    復制代碼

      |" f- ?( }' n: G, N. A% l0 J, j  H" x; U& W* _) F

    # ^) R! ?9 h, }; a1 d  ]6 L2 a' x0 O9 {+ }% j, u9 D3 N
      z/ A# l6 Q# t

    / q- D% I! X! p9 w; A/ i1 ^1 N7 j* k' r1 j

    ( z! D2 \' w  s% C: G7 q0 @) @
    ( h9 M  F: M' S+ c
    - ^, X* s+ }* c# r

    本帖子中包含更多資源

    您需要 登錄 才可以下載或查看,沒有帳號?立即注冊

    x
    回復

    使用道具 舉報

    您需要登錄后才可以回帖 登錄 | 立即注冊

    本版積分規則

    QQ|廣告友鏈合作聯系QQ:1374229927|小黑屋|威酷高清影視論壇

    GMT+8, 2020-5-30 23:25 , Processed in 0.014860 second(s), 14 queries , Gzip On, MemCached On.

    Powered by vkugq.net

    © 2008-2019 vkugq.net Inc.

    快速回復 返回頂部 返回列表
    3d试机号口决选号技巧