威酷高清論壇

 找回密碼
 立即注冊
查看: 193|回復: 0
打印 上一主題 下一主題
收起左側

[犯罪] 少年黑手黨 Piranhas.2019.MULTi.1080p.BluRay.x264.AC3-EXTREME 8.14 GiB

[復制鏈接]
  • TA的每日心情
    奮斗
    前天 21:44
  • 簽到天數: 8 天

    [LV.3]偶爾看看II

    跳轉到指定樓層
    樓主
    卡西迪奧 發表于 2019-10-23 17:48:42 | 只看該作者 回帖獎勵 |倒序瀏覽 |閱讀模式
    - L! A6 ?2 W7 g
    & K; C* h% d2 q7 P. A8 t6 [
    ◎譯  名 少年黑手黨
    ; b* K1 _: n' f/ A8 z# N◎片  名 La Paranza dei Bambini
      l7 Z2 W) C1 i' T9 x' j, i0 B◎年  代 2018
    ! e; I& v0 E3 M1 [◎國  家 意大利
    . S/ n. J2 g9 x8 L. m8 H◎類  別 犯罪/劇情  ' x3 K3 L6 \) v- b3 e
    ◎語  言 意大利語6 n- a/ m7 P, ]% m) k8 P
    ◎IMDb評分 6.6/10 from 841 users: w0 \+ @& i3 I
    ◎IMDB鏈接 https://www.imdb.com/title/tt8740778/* w) V) _/ t5 a+ R! U0 `: C
    ◎片  長 1 h 51 min
    * ]. C2 [( f# ]◎導  演 克勞迪歐·吉瓦內斯 Claudio Giovannesi
    . ?  C4 T, J0 F& w◎主  演 薇薇安娜·阿普雷亞 Viviana Aprea8 r0 A* H- v# ~) x2 Q$ R
           馬蒂亞·皮亞諾·德爾·巴爾佐 Mattia Piano Del Balzo
    3 u( O( o- f3 z5 V" H$ J       弗朗西斯科·迪·那布勒 Francesco Di Napoli
    2 n6 @, Q, t  O: b( X4 z: z       帕斯夸爾·馬洛塔 Pasquale Marotta$ M8 q# e; x2 a0 r) Z
    ' K0 D! E8 r1 d( t: R, a) l" e

    4 p! |9 f9 E4 J9 w◎簡  介 # p4 B1 K3 ~) Z! R9 @+ \0 X

    9 g/ K7 \8 A/ G5 _9 {) ^  一群十幾歲的男孩拿著手槍和AK-47在那不勒斯的街道上巡邏,以執行他們的暴徒頭目的命令。" l) i2 f1 c- s- V- r: U) N" C- k

    3 J- `3 Q: C) ]8 ~0 p) H! }" P
    - `; F' {6 i# `; S
    1. General
      - |6 I# u; r8 _6 p
    2. Unique ID                      : 314500012725772115167645093768973465787 (0xEC9A7FCBB1A72D5BC7234DAC329738BB)
      3 Z1 N% H% s' u" w
    3. Complete name                  : D:\迅雷下載\[ Torrent9.cz ] Piranhas.2019.MULTi.1080p.BluRay.x264.AC3-EXTREME.mkv
      : o& a* d1 V% |4 f2 r
    4. Format                         : Matroska( y7 r2 d$ s+ H/ N9 }
    5. Format version                 : Version 4& `4 w. m8 ^: ~+ R8 ?' [' f
    6. File size                      : 8.14 GiB
      0 k; x: Q$ j1 h, J/ X
    7. Duration                       : 1 h 51 min
        P) s( U: ]/ e" z! ~9 y7 [& V
    8. Overall bit rate               : 10.4 Mb/s
      ) ]/ U# G- e& k6 O, S
    9. Encoded date                   : UTC 2019-10-21 22:38:07
      ' v4 {1 x( R4 A: G" @/ N# j
    10. Writing application            : mkvmerge v38.0.0 ('The Silent Type') 64-bit
      ; k7 h' K/ ~: q+ R$ V% m0 w
    11. Writing library                : libebml v1.3.9 + libmatroska v1.5.2
      . S, r4 b% H  n2 Y8 ?; z
    12. FileExtension_Invalid          : mkv mk3d mka mks
      + {* r/ `: t) ]
    13. 0 \$ o, L) E6 s" H4 e5 [
    14. Video
      3 F% [5 @! l8 k8 L
    15. ID                             : 44 D. t1 k, J0 ]. u+ W! i; z# v: f
    16. Format                         : AVC
      % |: _! Q/ f# q4 U, \* }
    17. Format/Info                    : Advanced Video Codec. O7 u7 M# X* g! U! y! d
    18. Format profile                 : [email][email protected][/email]
      - C( w/ ?5 Q; n
    19. Format settings                : CABAC / 5 Ref Frames
      # ~, ?2 |; [1 X1 L- a6 N- C
    20. Format settings, CABAC         : Yes6 r. K1 m" u4 ^; D# K7 D
    21. Format settings, ReFrames      : 5 frames5 T! z7 ?  T5 ]) D, m
    22. Codec ID                       : V_MPEG4/ISO/AVC$ Q' [, o9 C' s& ^
    23. Duration                       : 1 h 51 min
      & [8 j! q, P& \2 @# y
    24. Bit rate                       : 8 285 kb/s
      8 u8 `( z9 p1 H4 J
    25. Width                          : 1 920 pixels
      2 H$ E$ N2 `  b6 W5 l: r: J
    26. Height                         : 800 pixels5 e+ o; @2 \3 q/ z  P+ z
    27. Display aspect ratio           : 2.40:1
      8 O; J1 S7 Y' H6 `
    28. Frame rate mode                : Constant$ Z3 u' n5 Y# Q8 S- c- e
    29. Frame rate                     : 23.976 (24000/1001) FPS$ Z6 \( m7 X9 k( ]' _: ]5 I. f
    30. Color space                    : YUV
      1 e1 v8 `  i, r
    31. Chroma subsampling             : 4:2:0* X% g% q" X& L( K& k
    32. Bit depth                      : 8 bits
      * M) r7 ~0 L6 d, E8 m
    33. Scan type                      : Progressive. P6 R) v' B5 m& A' r# l
    34. Bits/(Pixel*Frame)             : 0.225) W! ^3 p5 p" d+ O, `' B' d, _. D) U
    35. Stream size                    : 6.45 GiB (79%)
      4 {# A4 ^- S! i5 {1 A7 I, [3 H, }
    36. Writing library                : x264 core 157 r2969 d4099dd# k8 A/ ^1 u7 I7 W/ }9 ]
    37. Language                       : English0 P  j1 ~8 d+ Z; ]3 ^' ~6 [, A
    38. Default                        : Yes
      & F- [1 b; h, b; A( H
    39. Forced                         : No
      / s3 q( _; J3 E6 n' t: M$ m2 `

    40. * v1 j$ }: S3 c; v! r9 h
    41. Audio #1
        e6 z1 R, |/ |3 m& z/ Y2 R
    42. ID                             : 17 U" p+ R1 T3 M0 r
    43. Format                         : AC-3
      6 Z1 _5 K- S$ H: Z4 r
    44. Format/Info                    : Audio Coding 39 ]  d' m. O4 u5 u& Y% m  B
    45. Commercial name                : Dolby Digital
      8 Z* q/ L$ v9 g( ]" t6 _
    46. Codec ID                       : A_AC3  g9 L. N. h/ I2 Z. t5 y
    47. Duration                       : 1 h 51 min8 L1 A# {. g3 C$ }1 p
    48. Bit rate mode                  : Constant: K6 T; n$ b3 V& W% F$ r" R
    49. Bit rate                       : 448 kb/s
      % n0 X9 g0 F  E0 k1 J
    50. Channel(s)                     : 6 channels% C0 V! H' Z  t! B6 R
    51. Channel layout                 : L R C LFE Ls Rs
      7 I9 {" h7 }8 u+ K* C
    52. Sampling rate                  : 48.0 kHz3 J! m" _; v- ^' A4 j
    53. Frame rate                     : 31.250 FPS (1536 SPF)1 D3 @9 W5 [: u$ F8 Y
    54. Bit depth                      : 16 bits
      ) D- |5 [% e% s( y
    55. Compression mode               : Lossy
      * G3 b* p/ l3 [& g
    56. Delay relative to video        : 16 ms
      ) X2 h: U* q2 F) ^( U0 Q/ P5 [5 m4 C
    57. Stream size                    : 357 MiB (4%)
      / K# U( K$ }! n) j3 D& d4 Q  l
    58. Language                       : French1 _4 ]" _; M- B) G3 V' T0 F  k
    59. Service kind                   : Complete Main
      % i9 l. O0 P8 E/ Q
    60. Default                        : Yes
      ( J' b4 i2 r! e3 O2 Z
    61. Forced                         : No
        _) t& S/ F5 y+ `  k- ~8 C4 I
    62. 1 r2 ?- W0 B+ P, K) N- q$ T& @0 m  Q
    63. Audio #25 F$ t# u9 @) B' S! M) V$ H9 z
    64. ID                             : 5# w6 P/ F* i$ u( J+ r$ z
    65. Format                         : DTS
      5 o0 Z7 N) g, ?8 o
    66. Format/Info                    : Digital Theater Systems+ x) ^* r+ }$ a3 ~8 Q( e8 h# t
    67. Codec ID                       : A_DTS+ V/ L3 s8 Y4 h2 P
    68. Duration                       : 1 h 51 min0 t" A; u& {/ Q4 T: F
    69. Bit rate mode                  : Constant
      9 l8 V7 [/ `# f) |
    70. Bit rate                       : 1 509 kb/s2 I1 I! g: y" `5 [' _/ g2 a" p& J6 p
    71. Channel(s)                     : 6 channels) m8 l/ n" H2 ~7 x; c
    72. Channel layout                 : C L R Ls Rs LFE& q. H) z! g& j* Q3 G
    73. Sampling rate                  : 48.0 kHz( z, c3 @7 b+ l
    74. Frame rate                     : 93.750 FPS (512 SPF)5 E" B9 l  `/ ^1 K6 Z
    75. Bit depth                      : 24 bits- w9 e6 a& \- \& Q' F* K
    76. Compression mode               : Lossy7 V1 Q! s4 K0 g! S1 c" a* g. y
    77. Stream size                    : 1.18 GiB (14%)
      $ u/ B4 {1 d; L; m6 U! I% l
    78. Language                       : Italian  L" R, \7 E# y4 s( D7 N
    79. Default                        : No$ h: A0 s% T. Y9 y9 z8 G
    80. Forced                         : No
      7 k) l) u% L* u
    81. 4 h6 q+ Y7 T* u
    82. Text #1
      : a5 w7 w/ n* Q* j( ]4 S
    83. ID                             : 2
      1 K, k7 b9 C' @" B5 J. c
    84. Format                         : UTF-8. \4 f9 U6 R1 t- ?
    85. Codec ID                       : S_TEXT/UTF8
      ; s, U3 m1 t* R& S2 z5 F1 H
    86. Codec ID/Info                  : UTF-8 Plain Text" P5 `8 q! r4 |! H8 b% X4 @5 |
    87. Title                          : Forced
      * X( w, A; U0 ^+ B  e1 d
    88. Language                       : French+ s4 V+ s# f3 H$ D& x$ S2 s2 E1 f5 t9 u
    89. Default                        : Yes
      3 G5 W3 S! Q, U+ O1 j+ ?7 |( V
    90. Forced                         : No
      # l# m( z5 D: Z  q% u* a

    91.   R4 H5 x, X' R* H
    92. Text #2
      , m, V5 P/ y: S3 m, E
    93. ID                             : 3
      / N& l' D0 S$ s
    94. Format                         : UTF-8$ F2 @. n; c$ E) w+ z$ y' A* L/ B
    95. Codec ID                       : S_TEXT/UTF8
      1 {' I" S2 j. B: V$ u, [+ E
    96. Codec ID/Info                  : UTF-8 Plain Text
      / ?, v" m- K1 c6 h! o. s' S# w
    97. Title                          : French4 p! x" a1 D- m! }
    98. Language                       : French
      2 k8 B9 ]! F2 [/ N! t' s' o' r) d
    99. Default                        : No
      , U& [- a/ h/ P
    100. Forced                         : No/ j$ i$ F, w" H, R6 |  H
    101. ' v* R- Y; R( @# |6 B7 W
    102. Menu
      & }/ a7 K4 k3 i6 n- A* R
    103. 00:00:00.000                   : en:Capitolo 01
      ' F) g6 y- `* m3 p- a
    104. 00:12:38.758                   : en:Capitolo 020 [/ E' n/ u# T; J" _1 `1 ?
    105. 00:24:49.488                   : en:Capitolo 03
      8 p1 j* p7 u+ z  a% c0 P
    106. 00:39:59.397                   : en:Capitolo 04
      $ T1 s- |% q9 V8 y. Y; s6 y, \
    107. 00:55:47.344                   : en:Capitolo 05$ n. \: I5 y1 F9 z. C3 k
    108. 01:12:57.373                   : en:Capitolo 06
      1 {/ h5 J" a- @- P* R( g4 |+ m/ T
    109. 01:28:54.329                   : en:Capitolo 07' A  [& S& Q9 y' a5 M- [7 ]
    110. 01:41:40.094                   : en:Capitolo 08) x3 O4 z- }( ^2 I% I
    111. 5 T% I5 ~  J! D/ J( V0 m2 n, ]
    復制代碼

    ; V; D- T% P/ E; e! c/ s- i! |- ?( f* y' v' A+ O9 u, ^
    4 m7 i/ N1 J, U* S

    本帖子中包含更多資源

    您需要 登錄 才可以下載或查看,沒有帳號?立即注冊

    x
    回復

    使用道具 舉報

    您需要登錄后才可以回帖 登錄 | 立即注冊

    本版積分規則

    QQ|廣告友鏈合作聯系QQ:1374229927|小黑屋|威酷高清影視論壇

    GMT+8, 2020-5-26 10:49 , Processed in 0.013476 second(s), 12 queries , Gzip On, MemCached On.

    Powered by vkugq.net

    © 2008-2019 vkugq.net Inc.

    快速回復 返回頂部 返回列表
    3d试机号口决选号技巧